Download M.F.A 2017 720p BRRip x264 AAC ESub-Hon3y Torrent | 1337x

M.F.A 2017 720p BRRip x264 AAC ESub-Hon3y

  • Category Movies
  • Type HD
  • Language English
  • Total size 918.5 MB
  • Uploaded By Hon3yHD
  • Downloads 735
  • Last checked 4 days ago
  • Date uploaded 1 week ago
  • Seeders 24
  • Leechers 3

A Family Man

Drama

The story of a ruthless headhunter (Butler) whose personal and professional life is shaken when his son suddenly becomes ill.

Infohash : 73697AA90160798A90794D410D17D55688A0ABBF




M.F.A 2017 720p BRRip x264 AAC ESub-Hon3y

http://hon3yhd.to

Source:PSYCHD
Format : Matroska
Format version : Version 4 / Version 2
File size : 918 MiB
Duration : 1 h 32 min
Overall bit rate : 1 394 kb/s
Movie name : M.F.A 2017-Hon3y


Video
ID : 1
Format : AVC
Format/Info : Advanced Video Codec
Format profile : [email protected]
Format settings, CABAC : Yes
Format settings, RefFrames : 8 frames
Codec ID : V_MPEG4/ISO/AVC
Duration : 1 h 32 min
Bit rate : 1 200 kb/s
Width : 1 280 pixels
Height : 692 pixels
Display aspect ratio : 1.85:1
Frame rate mode : Constant
Frame rate : 23.976 (24000/1001) FPS


Audio
ID : 2
Format : AAC
Format/Info : Advanced Audio Codec
Format profile : LC
Codec ID : A_AAC
Duration : 1 h 32 min
Bit rate : 192 kb/s
Channel(s) : 6 channels
Channel positions : Front: L C R, Side: L R, LFE
Sampling rate : 48.0 kHz
Frame rate : 46.875 FPS (1024 SPF)
Compression mode : Lossy
Delay relative to video : -21 ms
Stream size : 126 MiB (14%)
Title : Surround
Language : English
Default : Yes
Forced : No

Text #1
ID : 3
Format : UTF-8
Codec ID : S_TEXT/UTF8
Codec ID/Info : UTF-8 Plain Text
Duration : 1 h 30 min
Bit rate : 46 b/s
Count of elements : 1003
Stream size : 30.6 KiB (0%)
Language : English
Default : No
Forced : No

Text #2
ID : 4
Format : UTF-8
Codec ID : S_TEXT/UTF8
Codec ID/Info : UTF-8 Plain Text
Duration : 1 h 31 min
Bit rate : 51 b/s
Count of elements : 1205
Stream size : 34.4 KiB (0%)
Title : SDH
Language : English
Default : No
Forced : No

Menu #1
00:00:00.000 : :00:00:00.000
00:04:53.418 : :00:04:53.418
00:08:22.335 : :00:08:22.293
00:14:08.139 : :00:14:08.139
00:18:44.498 : :00:18:44.373
00:22:05.991 : :00:22:05.908
00:26:01.643 : :00:26:01.560
00:29:29.685 : :00:29:29.685
00:34:09.548 : :00:34:09.547
00:38:05.116 : :00:38:05.074
00:43:05.541 : :00:43:05.541
00:47:25.676 : :00:47:25.676
00:51:47.646 : :00:51:47.646
00:54:13.417 : :00:54:13.417
01:00:15.403 : :01:00:15.403
01:05:53.825 : :01:05:53.825
01:09:48.017 : :01:09:48.017
01:14:33.260 : :01:14:33.260
01:19:34.728 : :01:19:34.728
01:25:17.904 : :01:25:17.904
01:29:50.927 : :01:29:50.927

Files:

M.F.A 2017 720p BRRip x264 AAC ESub-Hon3y
  • M.F.A 2017 720p BRRip x264 AAC ESub-Hon3y.mkv (918.5 MB)
  • Torrent Seed By www.cyber-planet.in.txt (0.1 KB)
  • www.hon3yhd.to.txt (0.2 KB)

There are currently no comments. Feel free to leave one :)

Code:

  • udp://tracker.coppersurfer.tk:6969/announce
  • udp://tracker.pirateparty.gr:6969/announce
  • udp://shadowshq.yi.org:6969/announce
  • udp://eddie4.nl:6969/announce
  • udp://tracker.leechers-paradise.org:6969/announce
  • udp://tracker.opentrackr.org:1337/announce
  • udp://p4p.arenabg.ch:1337/announce
  • udp://p4p.arenabg.com:1337/announce
  • udp://9.rarbg.me:2710/announce
  • udp://9.rarbg.to:2710/announce
  • udp://tracker.coppersurfer.tk:80/announce
  • udp://tracker.vanitycore.co:6969/announce
  • udp://public.popcorn-tracker.org:6969/announce
  • udp://tracker.opentrackr.org:1337/announce
  • udp://tracker.zer0day.to:1337/announce